首页 » 周边 » 【日影】[MagicStar] 风云儿 织田信长 / 風雲児 織田信長 1959 [WEBDL] [1080p] [AMZN]【生】

信息

发布代号: 魔星字幕团

发布时间: 2023-01-25 06:17:38

状态统计: 做种 2, 下载 2, 完成 3

健 康 度: 10

Tracker +超展开 -超还原

Announce:

http://open.acgtracker.com:1096/announce

Announce list:
  • udp://tracker4.itzmx.com:2710/announce
  • udp://tracker3.itzmx.com:6961/announce
  • udp://tracker2.itzmx.com:6961/announce
  • udp://tracker1.itzmx.com:8080/announce
  • http://tracker4.itzmx.com:2710/announce
  • http://tracker3.itzmx.com:6961/announce
  • http://tracker2.itzmx.com:6961/announce
  • http://tracker1.itzmx.com:8080/announce
  • udp://tracker.publicbt.com:80/announce
  • http://open.acgtracker.com:1096/announce
  • udp://tracker.openbittorrent.com:80/announce
  • udp://tracker.publicbt.com:80/announce
  • udp://tracker.prq.to:80/announce
  • udp://104.238.198.186:8000/announce
  • http://104.238.198.186:8000/announce
  • http://94.228.192.98/announce
  • http://share.dmhy.org/annonuce
  • http://tracker.btcake.com/announce
  • http://tracker.ktxp.com:6868/announce
  • http://tracker.ktxp.com:7070/announce
  • http://bt.sc-ol.com:2710/announce
  • http://open.acgtracker.com:1096/announce
  • http://btfile.sdo.com:6961/announce
  • https://t-115.rhcloud.com/only_for_ylbud
  • http://tr.bangumi.moe:6969/announce
  • http://exodus.desync.com:6969/announce
  • udp://coppersurfer.tk:6969/announce
  • http://tracker3.torrentino.com/announce
  • http://tracker2.torrentino.com/announce
  • udp://open.demonii.com:1337/announce
  • udp://tracker.ex.ua:80/announce
  • http://pubt.net:2710/announce
  • http://tracker.tfile.me/announce
  • http://bigfoot1942.sektori.org:6969/announce
  • http://t.nyaatracker.com/announce
  • udp://bt.sc-ol.com:2710/announce
  • http://nyaa.tracker.wf:7777/announce

详情


HD 1080p from Prime Video.


We are planning to upload all prime video japan Dramas and Movies, we need your Support!


Support Us

Ali (Zhifubao / QR code): https://i.ibb.co/FWV2ggm/1660626347125.png
PayPalMe: https://www.paypal.com/paypalme/sakuragikenji


alt text
alt text

General Unique ID                      : 266611967482069591202665142530037522832 (0xC89398E02BAA384E74305339612C2190) Complete name                  : Fuunji.Oda.Nobunaga.1959.1080p.AMZN.WEB-DL.DDP2.0.H.264-MagicStar.mkv Format                         : Matroska Format version                 : Version 4 File size                      : 8.40 GiB Duration                       : 1 h 35 min Overall bit rate               : 12.6 Mb/s Encoded date                   : UTC 2023-01-24 21:19:59 Writing application            : mkvmerge v50.0.0 ('Awakenings') 64-bit Writing library                : libebml v1.4.0 + libmatroska v1.6.2 Cover                          : Yes Attachments                    : cover.png  Video ID                             : 1 Format                         : AVC Format/Info                    : Advanced Video Codec Format profile                 : [email protected] Format settings                : CABAC / 4 Ref Frames Format settings, CABAC         : Yes Format settings, Reference fra : 4 frames Codec ID                       : V_MPEG4/ISO/AVC Duration                       : 1 h 35 min Bit rate                       : 12.4 Mb/s Width                          : 1 920 pixels Height                         : 816 pixels Display aspect ratio           : 2.35:1 Frame rate mode                : Constant Frame rate                     : 29.970 (29970/1000) FPS Original frame rate            : 29.970 (30000/1001) FPS Color space                    : YUV Chroma subsampling             : 4:2:0 Bit depth                      : 8 bits Scan type                      : Progressive Bits/(Pixel*Frame)             : 0.264 Stream size                    : 8.25 GiB (98%) Default                        : Yes Forced                         : No Color range                    : Limited Color primaries                : BT.709 Transfer characteristics       : BT.709 Matrix coefficients            : BT.709  Audio ID                             : 2 Format                         : E-AC-3 Format/Info                    : Enhanced AC-3 Commercial name                : Dolby Digital Plus Codec ID                       : A_EAC3 Duration                       : 1 h 35 min Bit rate mode                  : Constant Bit rate                       : 224 kb/s Channel(s)                     : 2 channels Channel layout                 : L R Sampling rate                  : 48.0 kHz Frame rate                     : 31.250 FPS (1536 SPF) Compression mode               : Lossy Stream size                    : 152 MiB (2%) Title                          : 日本語 [オリジナル] Language                       : Japanese Service kind                   : Complete Main Default                        : Yes Forced                         : No

标签

日影    MagicStar    风云儿 织田信长    風雲児 織田信長    WEBDL    1080p    AMZN    Fuunji    Oda    Nobunaga   

文件清单 文件总数:1,文件总大小:8.4GB,特征码:d36b9afa131238056dcb673685f1588feb5ff18f

 
  • Folder [MagicStar] Fuunji Oda Nobunaga 1959 [WEBDL] [1080p] [AMZN]
    • 视频文件 Fuunji.Oda.Nobunaga.1959.1080p.AMZN.WEB-DL.DDP2.0.H.264-MagicStar.mkv(8.4GB)
 

往期吐槽(0)

正在加载留言,请稍候......
我要吐槽(吐槽限制不多于 1000 字)
填写内容
|∀゚ (´゚Д゚`) (;´Д`) (`・ω・) (=゚ω゚)= | ω・´) |-` ) |д` ) |ー` ) |∀` ) (つд⊂) (゚Д゚≡゚Д゚) (^o^)ノ (|||゚Д゚) ( ゚∀゚) ( ´∀`) (*´∀`) (*゚∇゚) (*゚ー゚) ( ゚ 3゚) ( ´ー`) ( ・_ゝ・) ( ´_ゝ`) (*´д`) (・ー・) (・∀・) (ゝ∀・) (〃∀〃) (*゚∀゚*) ( ゚∀。) ( `д´) (`ε´ ) (`ヮ´ ) σ`∀´) ゚∀゚)σ ゚ ∀゚)ノ (╬゚д゚) (|||゚д゚) ( ゚д゚) Σ( ゚д゚) ( ;゚д゚) ( ;´д`) ( д ) ゚ ゚ ( ☉д⊙) ((( ゚д゚))) ( ` ・´) ( ´д`) ( -д-) (>д<) ・゚( ノд`゚) ( TдT) ( ̄∇ ̄) ( ̄3 ̄) ( ̄ー ̄) ( ̄ .  ̄) ( ̄皿 ̄) ( ̄艸 ̄) ( ̄︿ ̄) ( ̄︶ ̄) ヾ(´ω゚`) (*´ω`*) (・ω・) ( ´・ω) (`・ω) (´・ω・`) (`・ω・´) ( `_っ´) ( `ー´) ( ´_っ`) ( ´ρ`) ( ゚ω゚) (o゚ω゚o) ( ^ω^) (。◕∀◕。) /( ◕‿‿◕ )\ ヾ(´ε`ヾ) (ノ゚∀゚)ノ (σ゚д゚)σ (σ゚∀゚)σ |д゚ ) ┃電柱┃ ゚(つд`゚) ゚Å゚ )  ⊂彡☆))д`) ⊂彡☆))д´) ⊂彡☆))∀`) (´∀((☆ミつ
验证码